5.- Tabla de contenidos Ilegal o falsa (Illegal TOC)
 

Podemos crear una tabla de contenidos Ilegal de la siguiente forma:
Lo primero es deciros que algunas grabadoras NO pueden usar este método, y probablemente os darán un error antes de comenzar a grabar el cd. (Esto lo he comprobado personalmente)
Necesitamos el CDRWIN 3.6 o superior. (No lo he probado con inferiores)

Para un juego con una pista de DATOS: Ir a la opción
Extract Disc/Tracks/Sectors y crea una imagen en el disco duro con el contenido del cd (selecciona la fuente de la imagen (el cd) y pon como destino, por ejemplo c:\imagen.bin)
Cuando la imagen este ya en el disco duro ve a la Record Disc y comprueba la duración de la pista (por ejemplo 34:22:17)
Ok, ahora ejecuta el notepad y abre el archivo del cuesheet que se ha generado (en nuestro caso c:\ imagen.cue. Encontraras lo siguiente:

 
FILE "C:\IMAGEN.BIN" BINARY
TRACK 01 MODE1/2352
INDEX 01 00:00:00
 

Ahora le añadiremos una pista más, que comenzará 2 segundo s antes de la finalización de la primera, es decir, si la primera era de 34:22:17, la que añadimos comienza en 34:20:17 (dos segundos menos), de forma que queda así:

 
FILE "C:\IMAGEN.BIN" BINARY
TRACK 01 MODE1/2352
INDEX 01 00:00:00
TRACK 02 MODE1/2352
INDEX 01 34:20:17
 

Graba el archivo y ve de nuevo al cdrwin. Abre el Archivo Cuesheet y dale a grabar el cd. El cdrwin te dará un aviso de que el formato del CD-ROM que vas a grabar es ilegal y si estas seguro de querer seguir. En este punto ciertas grabadoras darán error y no podrás continuar con la grabación.
Si tienes suerte y la grabación va bien, habrás conseguido proteger tu cd. Esta método de protección evita que se puedan realizar las copias de forma convencional, ya que ni el CDRWIN ni el NERO consiguen copiar un cd de este tipo. El método a usar tendrá que ser diferente :)
Con el mismo método una buena idea es usar distintos tipos de pista, ya que aún será más complicado hacer una copia del mismo. Es decir, seguimos los mismos pasos que antes, pero en lugar de crear una pista en modo 1 lo hacemos de la siguiente forma:

 
FILE "C:\IMAGEN.BIN" BINARY
TRACK 01 MODE1/2352
INDEX 01 00:00:00
TRACK 02 MODE2/2352
INDEX 01 34:20:17
 

Observar que el cambio está en la segunda pista, que es MODE2 en lugar de MODE1 En el caso de que el cd contenga pistas de audio, la pista debe añadirse también al final, pero en lugar de comenzar 2 segundos antes del final de la pista anterior, deberá comenzar 4 segundos antes.